<?xml version="1.0" standalone="no"?>
<!DOCTYPE svg PUBLIC "-//W3C//DTD SVG 1.1//EN" "http://www.w3.org/Graphics/SVG/1.1/DTD/svg11.dtd" >
<svg xmlns="http://www.w3.org/2000/svg">
<metadata>Generated by IcoMoon</metadata>
<defs>
<font id="icomoon" horiz-adv-x="1024">
<font-face units-per-em="1024" ascent="960" descent="-64" />
<missing-glyph horiz-adv-x="1024" />
<glyph unicode="&#x20;" horiz-adv-x="512" d="" />
<glyph unicode="&#xe900;" glyph-name="chevron-up" d="M367.577 465.369l-146.944-130.875 10.437-11.737c5.711-6.498 12.8-14.494 15.675-17.802l5.238-6.026 130.914 116.421c71.995 64.039 131.899 116.815 133.041 117.248 1.182 0.433 61.125-51.633 133.238-115.712s131.702-116.5 132.45-116.5c0.709 0 8.074 7.522 16.305 16.778l14.966 16.778-5.829 5.671c-16.738 16.345-288.965 256.827-290.58 256.748-1.063-0.079-68.057-59.038-148.913-130.993z" />
<glyph unicode="&#xe901;" glyph-name="chevron-down" d="M226.304 579.23l-15.163-17.211 5.79-5.632c19.338-18.865 289.162-256.906 290.777-256.512 1.063 0.276 68.017 59.234 148.795 131.072l146.865 130.56-10.437 11.737c-5.711 6.498-12.8 14.494-15.675 17.802l-5.238 6.026-130.914-116.421c-71.995-64.039-131.938-116.815-133.12-117.287-1.26-0.473-59.51 50.097-133.829 116.145-72.35 64.315-131.82 116.972-132.135 116.933-0.276 0-7.365-7.759-15.714-17.211z" />
<glyph unicode="&#xe902;" glyph-name="search" d="M386.678 785.802c-78.415-8.113-148.519-55.729-185.974-126.228-17.644-33.241-24.694-61.755-26.033-104.921-2.284-72.98 19.259-128.433 69.278-178.452 35.879-35.879 73.452-56.32 121.265-66.009 20.716-4.175 75.618-4.175 94.996 0 32.256 6.971 64.512 20.834 88.34 37.927l13.509 9.689 246.863-246.863 41.039 40.921-123.313 123.313c-95.705 95.705-122.959 123.865-121.62 125.716 25.915 36.51 39.582 67.151 46.277 103.818 4.372 23.828 3.978 64.985-0.827 89.639-9.531 48.719-29.735 86.292-65.89 122.565-45.214 45.292-96.335 67.308-161.95 69.711-3.272 0.126-7.114 0.197-10.972 0.197-8.795 0-17.503-0.372-26.109-1.101l1.123 0.077zM452.49 724.441c66.465-14.146 118.69-63.328 136.981-126.882l0.314-1.276c5.474-19.889 7.522-58.722 4.175-79.596-6.223-38.991-23.394-71.956-52.224-100.431-36.628-36.155-84.401-53.996-137.334-51.239-54.823 2.796-103.070 28.475-136.625 72.625-44.662 58.762-47.143 147.338-5.868 209.093 27.451 41.118 70.932 70.183 117.524 78.651 19.535 3.505 53.209 3.072 73.058-0.945z" />
<glyph unicode="&#xe903;" glyph-name="slider--prev" d="M295.302 469.33h515.36v-42.665h-515.36l247.135-247.135-30.443-30.197-298.666 298.665 298.666 298.667 30.443-30.197-247.135-247.137z" />
<glyph unicode="&#xe904;" glyph-name="slider--next" d="M728.695 426.67h-515.359v42.665h515.359l-247.135 247.136 30.443 30.197 298.668-298.666-298.668-298.668-30.443 30.197 247.135 247.138z" />
<glyph unicode="&#xe905;" glyph-name="date" d="M237.211 106.667c-18.595 0-34.335 6.252-47.218 18.751s-19.326 27.767-19.326 45.813v478c0 18.041 6.442 33.312 19.326 45.811s28.623 18.749 47.218 18.749h50.964v75.542h56.633v-75.542h278.911v75.542h55.216v-75.542h50.967c18.597 0 34.332-6.25 47.218-18.749s19.325-27.77 19.325-45.811v-478c0-18.045-6.44-33.314-19.325-45.813s-28.621-18.751-47.218-18.751h-492.691zM237.211 160.239h492.691c2.833 0 5.427 1.143 7.782 3.436 2.367 2.287 3.544 4.801 3.544 7.555v335.148h-515.346v-335.148c0-2.753 1.181-5.268 3.543-7.555 2.356-2.293 4.951-3.436 7.785-3.436zM225.882 559.948h515.346v89.283c0 2.75-1.178 5.268-3.544 7.554-2.355 2.291-4.949 3.437-7.782 3.437h-492.691c-2.834 0-5.429-1.146-7.785-3.437-2.362-2.286-3.543-4.804-3.543-7.554v-89.283z" />
<glyph unicode="&#xe906;" glyph-name="place" d="M512.066 481.872c18.748 0 34.777 6.893 48.086 20.678 13.317 13.785 19.973 30.355 19.973 49.71s-6.679 35.905-20.029 49.652c-13.353 13.74-29.406 20.61-48.161 20.61-18.748 0-34.777-6.893-48.086-20.678-13.315-13.785-19.973-30.359-19.973-49.72 0-19.355 6.676-35.903 20.029-49.642s29.406-20.61 48.161-20.61zM512 184.32c73.722 68.136 130.139 133.49 169.25 196.062 39.111 62.569 58.67 117.373 58.67 164.408 0 70.923-21.828 129.228-65.479 174.915s-97.798 68.53-162.441 68.53c-64.642 0-118.789-22.843-162.44-68.53s-65.477-103.992-65.477-174.915c0-47.036 19.556-101.839 58.666-164.408 39.111-62.572 95.528-127.926 169.252-196.062zM512 106.667c-94.84 84.838-165.957 163.789-213.352 236.863s-71.092 140.161-71.092 201.261c0 89.779 28.129 162.462 84.386 218.050 56.263 55.588 122.949 83.382 200.059 83.382 77.107 0 143.798-27.794 200.061-83.382 56.257-55.588 84.383-128.271 84.383-218.050 0-61.1-23.7-128.187-71.094-201.261s-118.511-152.024-213.35-236.863z" />
<glyph unicode="&#xe907;" glyph-name="time" d="M636.786 285.343l37.871 37.871-135.71 135.708v168.726h-53.894v-190.562l151.733-151.743zM512.063 106.667c-47.212 0-91.588 8.96-133.129 26.874-41.541 17.92-77.674 42.234-108.401 72.949s-55.053 66.833-72.982 108.356c-17.923 41.523-26.885 85.886-26.885 133.092 0 47.212 8.958 91.588 26.875 133.129s42.233 77.674 72.946 108.401c30.714 30.726 66.832 55.053 108.356 72.982 41.523 17.923 85.887 26.885 133.093 26.885 47.212 0 91.586-8.958 133.132-26.875 41.54-17.917 77.67-42.233 108.396-72.946s55.057-66.832 72.983-108.356c17.926-41.523 26.886-85.887 26.886-133.093 0-47.212-8.96-91.586-26.874-133.132-17.92-41.54-42.234-77.67-72.949-108.396s-66.833-55.057-108.356-72.983c-41.523-17.926-85.886-26.886-133.092-26.886zM512 160.563c79.644 0 147.462 27.995 203.452 83.985s83.985 123.807 83.985 203.452c0 79.644-27.995 147.462-83.985 203.453s-123.807 83.986-203.452 83.986c-79.644 0-147.462-27.995-203.453-83.986s-83.986-123.808-83.986-203.453c0-79.644 27.995-147.462 83.986-203.452s123.808-83.985 203.453-83.985z" />
<glyph unicode="&#xe908;" glyph-name="media--video" d="M390.737 230.349l338.916 217.652-338.916 217.655v-435.305zM512.097-64c-70.821 0-137.387 13.438-199.696 40.312-62.31 26.88-116.512 63.352-162.601 109.42-46.089 46.075-82.58 100.25-109.473 162.538-26.884 62.282-40.327 128.83-40.327 199.634 0 70.821 13.438 137.387 40.313 199.696s63.349 116.512 109.42 162.601 100.249 82.58 162.533 109.473c62.284 26.884 128.833 40.327 199.637 40.327 70.821 0 137.387-13.438 199.697-40.313s116.509-63.349 162.6-109.42c46.085-46.071 82.58-100.249 109.472-162.533 26.885-62.284 40.329-128.833 40.329-199.637 0-70.821-13.438-137.387-40.312-199.697-26.88-62.31-63.352-116.509-109.42-162.6-46.075-46.085-100.25-82.58-162.538-109.472-62.282-26.885-128.83-40.329-199.634-40.329zM512.001 16.846c120.366 0 222.316 41.768 305.852 125.304s125.304 185.487 125.304 305.852c0 120.366-41.768 222.316-125.304 305.852s-185.487 125.306-305.852 125.306c-120.366 0-222.316-41.769-305.852-125.306s-125.306-185.487-125.306-305.852c0-120.366 41.769-222.316 125.306-305.852s185.487-125.304 305.852-125.304z" />
<glyph unicode="&#xe909;" glyph-name="media--lecture" d="M194.856-64c-39.154 0-72.439 13.602-99.853 40.813-27.405 27.21-41.109 60.245-41.109 99.112v743.114c0 39.154 13.703 72.439 41.109 99.853 27.414 27.405 60.698 41.109 99.853 41.109h576.253v-825.008h-576.253c-16.653 0-30.836-5.649-42.55-16.948-11.713-11.31-17.57-25.321-17.57-42.040 0-16.708 5.857-30.742 17.57-42.114 11.713-11.366 25.897-17.044 42.55-17.044h694.406v835.364h80.844v-916.208h-775.25zM333.729 215.836h356.54v663.321h-356.54v-663.321zM252.887 215.836v663.321h-58.030c-17.039 0-31.317-5.857-42.832-17.57-11.525-11.713-17.287-25.897-17.287-42.55v-618.845c9.324 4.42 18.854 8.135 28.591 11.144 9.737 2.999 20.247 4.499 31.528 4.499h58.030z" />
<glyph unicode="&#xe90a;" glyph-name="media--podcast" d="M471.579-64v442.357c-12.71 7.805-22.626 17.541-29.749 29.209-7.115 11.668-10.671 25.169-10.671 40.501 0 21.998 7.963 40.96 23.889 56.886s34.91 23.889 56.953 23.889c22.043 0 41.027-7.963 56.951-23.889 15.929-15.926 23.893-34.87 23.893-56.832 0-15.306-3.561-28.946-10.672-40.92-7.122-11.973-17.041-21.592-29.751-28.845v-442.357h-80.843zM159.299 76.436c-49.125 46.99-87.956 102.281-116.493 165.877-28.537 63.602-42.806 132.119-42.806 205.54 0 70.853 13.438 137.436 40.313 199.747s63.349 116.511 109.42 162.6c46.071 46.089 100.248 82.58 162.533 109.474 62.285 26.884 128.831 40.327 199.64 40.327 70.819 0 137.384-13.442 199.695-40.327s116.508-63.371 162.6-109.46c46.086-46.089 82.58-100.285 109.471-162.587 26.886-62.302 40.329-128.871 40.329-199.707 0-73.397-14.268-142.050-42.803-205.959-28.541-63.92-67.374-119.091-116.497-165.524l-56.28 56.792c41.318 39.458 74.109 86.318 98.361 140.572s36.375 112.321 36.375 174.199c0 120.365-41.768 222.316-125.303 305.853s-185.486 125.305-305.852 125.305c-120.365 0-222.316-41.768-305.853-125.305s-125.305-185.488-125.305-305.853c0-61.98 12.126-119.916 36.379-173.813 24.252-53.891 57.487-100.602 99.705-140.123l-57.627-57.628zM311.552 228.688c-29.364 27.227-52.7 59.637-70.009 97.229-17.309 37.598-25.964 78.294-25.964 122.084 0 82.342 28.807 152.329 86.42 209.96 57.614 57.64 127.573 86.461 209.88 86.461 82.309 0 152.305-28.839 210.001-86.515 57.691-57.676 86.539-127.712 86.539-210.108 0-43.673-8.653-84.437-25.964-122.303-17.306-37.871-40.641-70.138-70.007-96.808l-57.628 57.628c22.46 20.662 40.198 44.914 53.225 72.755 13.022 27.847 19.536 57.49 19.536 88.929 0 59.284-21.111 110.035-63.329 152.253s-92.968 63.326-152.252 63.326c-59.284 0-110.035-21.109-152.253-63.326s-63.326-92.968-63.326-152.253c0-32.337 6.512-62.202 19.537-89.6s30.765-51.422 53.221-72.084l-57.627-57.628z" />
<glyph unicode="&#xe90b;" glyph-name="chevron-left" horiz-adv-x="576" d="M270.592 697.792c35.438 41.753-34.332-36.568-104.003-114.98l-109.693-125.724c-1.088-1.472 23.744-29.76 211.52-241.152l213.824-240.64c0.896-0.896 7.68 4.672 29.696 24.32 24.96 22.208 28.48 25.728 27.392 27.008l-191.040 215.104c-188.608 212.288-189.824 213.632-188.16 215.808 0.896 1.152 86.72 97.856 190.72 214.912 17.676 18.898 79.5 88.364 141.142 157.995l48.17 55.445c0.128 0.576-40.704 37.248-53.376 47.936l-3.648 3.072-212.544-239.104z" />
<glyph unicode="&#xe90c;" glyph-name="chevron-right" horiz-adv-x="512" d="M43.968 912.576l-28.48-25.472c-1.024-1.024 27.52-33.536 189.76-216 182.336-205.184 190.912-214.912 189.76-216.704-0.64-1.024-86.464-97.728-190.656-214.912-30.423-33.369-92.294-102.984-153.91-172.828l-35.53-41.060c0-0.384 12.736-12.096 28.352-25.92l28.288-25.216 427.84 481.344-2.112 2.304c148.112-170.183 78.255-91.849 8.445-13.47l-222.269 254.046c-189.039 214.64-258.28 292.195-327.609 369.671l115.641-131.463c-0.128 0-12.544-10.944-27.52-24.32z" />
<glyph unicode="&#xe90d;" glyph-name="download1" horiz-adv-x="970" d="M444.632 633.021v-327.033l-307.2 307.2-56.589-56.589 404.211-404.211 404.211 404.211-56.589 56.589-307.2-307.2v654.013h-80.842v-326.979zM80.842-25.465v-37.996h808.421v75.992h-808.421v-37.996z" />
<glyph unicode="&#xe90e;" glyph-name="lock" horiz-adv-x="878" d="M413.257 922.063c-66.072-7.704-122.1-42.764-159.695-99.816-14.434-21.894-23.552-44.081-30.086-73.24-2.731-12.337-3.072-19.456-3.657-78.165l-0.634-64.61-39.010-0.585c-35.791-0.585-39.741-0.878-47.982-3.852-25.559-9.981-45.316-30.025-54.692-55.132l-0.213-0.652-3.413-9.509v-494.446l3.852-9.85c10.63-27.307 30.037-46.324 56.661-55.54l9.704-3.365h294.766c284.233 0 295.058 0.098 302.811 2.731 14.336 4.876 25.356 11.654 35.986 22.138 11.264 11.118 16.579 19.261 22.43 34.182l3.755 9.704 0.39 242.444c0.439 267.362 0.878 253.318-8.728 272.872-5.559 11.362-21.016 28.477-32.085 35.596-4.832 2.958-10.464 5.789-16.332 8.157l-0.783 0.279c-9.411 3.56-11.166 3.755-48.762 4.291l-39.010 0.536-0.634 64.61c-0.585 58.709-0.926 65.829-3.657 78.165-6.534 29.16-15.653 51.346-30.086 73.24-33.938 51.541-83.773 85.723-141.312 96.841-14.415 2.373-31.028 3.729-47.957 3.729-7.61 0-15.156-0.274-22.629-0.813l1.002 0.058zM475.282 845.897c30.622-7.412 60.757-27.599 80.945-54.126 9.557-12.532 20.724-35.742 24.722-51.2 2.974-11.557 3.218-16.677 3.803-73.484l0.634-61.099h-293.059l0.634 61.099c0.731 70.266 1.268 74.118 14.141 100.547 20.976 43.163 61.478 73.985 109.7 81.14l0.795 0.097c13.751 1.95 43.691 0.39 57.685-2.974zM726.601 529.335l4.096-3.56 0.39-233.813c0.293-174.080-0.049-234.837-1.317-237.909-3.657-8.923 16.238-8.338-290.914-8.338s-287.256-0.585-290.914 8.338c-1.268 3.072-1.609 63.829-1.317 237.909l0.39 233.813 4.096 3.56 4.096 3.511h567.296l4.096-3.511zM420.035 372.614c-28.172-6.57-50.649-26.313-60.896-52.227l-0.203-0.582c-3.072-7.997-3.998-13.361-4.535-26.136-1.122-26.429 5.169-43.788 22.479-62.171 17.554-18.578 36.864-27.014 61.976-27.014s44.422 8.436 61.976 27.014c17.31 18.383 23.601 35.742 22.479 62.171-0.536 12.776-1.463 18.139-4.535 26.136-12.77 32.377-43.781 54.871-80.046 54.871-6.627 0-13.079-0.751-19.274-2.173l0.577 0.111z" />
<glyph unicode="&#xe90f;" glyph-name="external-link" horiz-adv-x="951" d="M64.951 846.702v-54.711h655.287l-720.238-720.238 38.4-38.473 38.473-38.4 720.238 720.238v-655.287h109.349v841.509h-841.509v-54.638z" />
<glyph unicode="&#xe910;" glyph-name="social-facebook" d="M423.034 108.457h131.801v330.098h91.955l9.819 110.517h-101.774v62.932c0 26.055 5.226 36.376 30.436 36.376h71.337v114.696h-91.27c-98.099 0-142.304-43.201-142.304-125.887v-88.118h-68.573v-111.911h68.573v-328.704z" />
<glyph unicode="&#xe911;" glyph-name="social-instagram" d="M497.247 704.119c90.711 0 101.451-0.353 137.271-1.913 33.103-1.46 51.105-6.799 63.071-11.279 15.86-5.942 27.171-13.039 39.062-24.494 11.886-11.454 19.255-22.354 25.423-37.636 4.651-11.531 10.189-28.849 11.705-60.768 1.619-34.513 1.957-44.859 1.957-132.262 0-87.406-0.339-97.753-1.957-132.265-1.516-31.921-7.054-49.243-11.705-60.77-6.168-15.281-13.536-26.179-25.423-37.636-11.89-11.453-23.201-18.554-39.062-24.493-11.965-4.482-29.968-9.819-63.071-11.276-35.82-1.564-46.56-1.89-137.271-1.89-90.715 0-101.455 0.327-137.274 1.89-33.129 1.457-51.104 6.794-63.071 11.276-15.86 5.939-27.172 13.040-39.060 24.493-11.888 11.457-19.256 22.355-25.422 37.636-4.651 11.528-10.19 28.849-11.705 60.77-1.62 34.513-1.959 44.859-1.959 132.265 0 87.402 0.339 97.749 1.959 132.262 1.516 31.92 7.055 49.238 11.705 60.768 6.166 15.282 13.534 26.182 25.422 37.636 11.888 11.455 23.201 18.553 39.060 24.494 11.967 4.48 29.942 9.819 63.071 11.279 35.82 1.56 46.56 1.913 137.274 1.913zM497.247 763.077c-92.258 0-103.831-0.378-140.070-1.966-36.16-1.586-60.85-7.122-82.458-15.203-22.339-8.385-41.281-19.562-60.171-37.762s-30.49-36.452-39.164-57.973c-8.414-20.821-14.161-44.611-15.807-79.452-1.647-34.914-2.038-46.067-2.038-134.955 0-88.891 0.391-100.045 2.038-134.959 1.646-34.844 7.394-58.632 15.807-79.451 8.674-21.524 20.274-39.775 39.164-57.974 18.89-18.204 37.832-29.377 60.171-37.762 21.608-8.078 46.298-13.619 82.458-15.206 36.239-1.583 47.811-1.961 140.070-1.961 92.255 0 103.83 0.378 140.067 1.961 36.159 1.587 60.849 7.129 82.456 15.206 22.339 8.385 41.283 19.558 60.172 37.762 18.889 18.2 30.492 36.45 39.192 57.974 8.389 20.819 14.135 44.607 15.781 79.451 1.646 34.914 2.036 46.068 2.036 134.959 0 88.887-0.39 100.041-2.036 134.955-1.646 34.84-7.392 58.631-15.781 79.452-8.7 21.521-20.303 39.773-39.192 57.973s-37.833 29.377-60.172 37.762c-21.606 8.081-46.297 13.617-82.456 15.203-36.238 1.587-47.813 1.966-140.067 1.966zM497.254 599.769c-90.573 0-164.024-73.426-164.024-164.022 0-90.569 73.451-164.021 164.024-164.021 90.569 0 164.021 73.452 164.021 164.021 0 90.596-73.452 164.022-164.021 164.022zM497.254 329.283c-58.809 0-106.467 47.679-106.467 106.464 0 58.809 47.658 106.468 106.467 106.468s106.464-47.659 106.464-106.468c0-58.785-47.655-106.464-106.464-106.464zM723.799 602.581c0-28.922-23.457-52.378-52.346-52.378-28.92 0-52.374 23.456-52.374 52.378 0 28.888 23.454 52.343 52.374 52.343 28.889 0 52.346-23.454 52.346-52.343z" />
<glyph unicode="&#xe912;" glyph-name="social-linkedin" d="M244.086 627.927c47.709 0 86.548 39.078 86.548 87.267s-38.599 87.267-86.548 87.267c-47.709 0-86.548-39.078-86.548-87.267s38.839-87.267 86.548-87.267zM317.914 566.079h-146.244v-472.296h146.244v472.296zM640.863 447.642c-58.738 0-89.186-39.558-89.186-105.968v-248.135h-140.249v472.296h140.249v-63.531c0 0 42.197 78.157 142.407 78.157 100.214 0 171.898-61.135 171.898-187.721v-298.961h-145.526v247.895c0 68.088-25.891 105.968-79.592 105.968z" />
<glyph unicode="&#xe913;" glyph-name="social-tiktok" d="M525.21 841.846c37.983 0 74.969 0 111.793 0 20.145-108.655 84.382-171.074 194.028-188.412 0-42.273 0-85.537 0-128.965-49.538-8.424-138.212 10.732-194.69 92.306 0-4.789 0-7.596 0-10.238 0-104.363 0.165-208.89 0-313.251-0.161-108.323-72.657-202.449-177.349-230.849-133.257-36.163-271.306 49.869-297.066 184.781-25.265 132.927 61.098 258.757 194.027 282.203 14.366 2.477 29.228 2.643 43.923 3.635 3.635 0.165 7.432-0.662 11.394-0.992 0-39.136 0-77.777 0-116.909-8.751 0-17.337 0.658-25.923-0.165-63.905-5.616-112.123-60.109-110.471-124.345 2.477-93.791 103.536-149.606 185.937-102.049 41.283 23.78 63.078 59.778 63.244 108.162 0.331 178.172 0.662 356.183 0.989 534.357 0.165 3.468 0.165 6.77 0.165 10.733z" />
<glyph unicode="&#xe914;" glyph-name="social-x" d="M165.473 802.462l268.849-359.55-270.475-292.234h60.806l236.92 255.835 191.366-255.835h207.23l-283.9 379.683 251.766 272.1h-60.806l-218.21-235.699-176.316 235.699h-207.228zM255.157 757.518h95.174l420.355-562.1h-95.173l-420.356 562.1z" />
<glyph unicode="&#xe915;" glyph-name="social-youtube" d="M522.886 153.442c-2.777 0-278.511 0.205-347.022 18.184-38.224 10.016-68.315 39.526-78.533 77.013-18.35 67.115-18.562 208.199-18.562 209.617s0.212 142.479 18.562 209.623c10.229 37.494 40.32 67.003 78.533 77.012 68.51 17.979 344.245 18.186 347.022 18.186 2.781 0 278.571-0.207 347.053-18.186 38.203-10.009 68.305-39.518 78.56-77.012 18.322-67.144 18.534-208.205 18.534-209.623s-0.213-142.501-18.534-209.617c-10.248-37.494-40.35-67.005-78.56-77.013-68.482-17.979-344.273-18.184-347.053-18.184zM445.637 572.939v-229.376l206.946 114.692-206.946 114.684z" />
<glyph unicode="&#xe916;" d="M512 960c282.77 0 512-229.23 512-512s-229.23-512-512-512c-282.77 0-512 229.23-512 512s229.23 512 512 512z" />
<glyph unicode="&#xe917;" d="M768 448l-384-221.702v443.405l384-221.702z" />
<glyph unicode="&#xe918;" glyph-name="close" d="M39.776 7.257l912.967 912.967 31.482-31.482-912.967-912.967-31.482 31.482zM952.743-24.224l-912.967 912.967 31.482 31.482 912.967-912.967-31.482-31.482z" />
<glyph unicode="&#xe919;" glyph-name="visibility-off" d="M659.089 420.425l-33.975 33.971c6.4 37.248-4.156 69.495-31.667 96.736-27.516 27.243-59.622 37.664-96.333 31.264l-33.971 33.973c7.168 2.951 14.647 5.167 22.443 6.645 7.791 1.472 16.614 2.208 26.462 2.208 43.486 0 80.337-15.111 110.562-45.333 30.221-30.222 45.333-67.075 45.333-110.56 0-9.847-0.738-18.944-2.21-27.285-1.476-8.341-3.695-15.548-6.643-21.619zM793.98 289.31l-32.333 28.553c27.025 20.621 51.025 43.2 72 67.733 20.979 24.533 38.933 52.446 53.867 83.733-35.554 71.823-86.575 128.89-153.067 171.2-66.487 42.311-140.621 63.467-222.4 63.467-20.621 0-40.887-1.422-60.8-4.267-19.908-2.844-39.466-7.111-58.666-12.8l-33.312 33.312c24.783 9.351 49.999 16.093 75.649 20.224 25.655 4.132 51.366 6.197 77.129 6.197 92.608 0 177.314-25.451 254.114-76.352 76.8-50.894 133.222-117.888 169.267-200.982-15.258-34.295-34.581-66.526-57.963-96.691-23.386-30.174-51.217-57.95-83.486-83.328zM841.562 58.086l-166.067 165.581c-18.876-8.371-42.3-15.744-70.272-22.114-27.985-6.37-59.042-9.557-93.175-9.557-93.155 0-177.859 25.451-254.111 76.352-76.253 50.893-132.676 117.888-169.27 200.981 16.569 37.687 38.421 72.986 65.557 105.888 27.129 32.903 56.093 60.512 86.891 82.827l-118.976 119.467 30.198 30.197 719.425-719.422-30.199-30.199zM271.312 627.857c-24.455-17.401-49.454-40.267-74.997-68.597-25.543-28.337-45.455-58.315-59.733-89.931 35.555-71.821 86.577-128.887 153.067-171.2s140.624-63.467 222.399-63.467c24.619 0 49.425 2.394 74.423 7.181 24.994 4.783 43.785 9.613 56.371 14.485l-69.589 70.067c-6.724-3.776-16.107-6.878-28.139-9.31s-23.053-3.648-33.067-3.648c-43.482 0-80.337 15.108-110.559 45.333-30.223 30.221-45.333 67.072-45.333 110.558 0 9.463 1.216 20.079 3.648 31.842 2.432 11.755 5.536 21.542 9.312 29.363l-97.803 97.323z" />
<glyph unicode="&#xe91a;" horiz-adv-x="1152" d="M0 960h1152v-1024h-1152v1024z" />
<glyph unicode="&#xe91b;" horiz-adv-x="1152" d="M128-32v451.696h-128v96h352v-96h-128v-451.696h-96zM128 668.304v291.696h96v-291.696h-96zM388.928 668.304v96h128v195.696h96v-195.696h128v-96h-352zM516.928-32v547.696h96v-547.696h-96zM905.856-32v195.693h-128v96h352v-96h-128v-195.693h-96zM905.856 412.304v547.696h96v-547.696h-96z" />
<glyph unicode="&#xe91c;" glyph-name="up" horiz-adv-x="1152" d="M592-64v776.128l364.563-364.56 67.437 68.432-480 480-480-480 67.44-68.432 364.56 364.56v-776.128h96z" />
<glyph unicode="&#xe91d;" glyph-name="visibility" d="M512.239 313.438c43.358 0 80.145 15.177 110.37 45.525 30.221 30.353 45.333 67.204 45.333 110.562s-15.177 80.146-45.525 110.368c-30.353 30.222-67.204 45.333-110.562 45.333-43.354 0-80.145-15.175-110.367-45.525s-45.333-67.202-45.333-110.56c0-43.358 15.175-80.145 45.525-110.37 30.35-30.221 67.205-45.333 110.559-45.333zM512.047 354.133c-32 0-59.2 11.2-81.6 33.6s-33.599 49.6-33.599 81.6c0 32 11.2 59.2 33.599 81.6s49.6 33.6 81.6 33.6c32 0 59.2-11.2 81.6-33.6s33.6-49.6 33.6-81.6c0-32-11.2-59.2-33.6-81.6s-49.6-33.6-81.6-33.6zM512.166 192c-92.417 0-176.641 25.148-252.673 75.447-76.032 50.295-132.974 117.589-170.827 201.886 37.853 84.295 94.756 151.591 170.709 201.888s160.139 75.445 252.556 75.445c92.416 0 176.64-25.149 252.672-75.445s132.975-117.593 170.825-201.888c-37.85-84.297-94.754-151.59-170.709-201.886-75.951-50.3-160.137-75.447-252.553-75.447zM512.047 234.667c80.358 0 154.133 21.154 221.333 63.467s118.579 99.379 154.133 171.2c-35.554 71.822-86.933 128.889-154.133 171.2s-140.975 63.467-221.333 63.467c-80.354 0-154.132-21.155-221.332-63.467s-118.577-99.378-154.133-171.2c35.555-71.821 86.933-128.887 154.133-171.2s140.978-63.467 221.332-63.467z" />
<glyph unicode="&#xe91e;" glyph-name="calendar--add" horiz-adv-x="887" d="M409.6 205.135h279.627c17.244 0 31.84 5.97 43.786 17.917 11.947 11.95 17.92 26.542 17.92 43.786v456.858c0 17.243-5.973 31.838-17.92 43.785s-26.542 17.92-43.786 17.92h-47.258v72.201h-51.2v-72.201h-258.627v72.201h-52.514v-72.201h-47.258c-17.243 0-31.838-5.973-43.785-17.92s-17.92-26.541-17.92-43.785v-275.695h51.2v139.162h477.867v-320.324c0-2.628-1.096-5.035-3.284-7.219-2.185-2.191-4.594-3.284-7.223-3.284h-279.627v-51.2zM699.733 638.362h-477.867v85.333c0 2.628 1.095 5.035 3.285 7.219 2.185 2.19 4.591 3.285 7.219 3.285h456.856c2.628 0 5.038-1.095 7.223-3.285 2.188-2.185 3.284-4.591 3.284-7.219v-85.333zM204.8 379.733h44.373v-102.4h92.16v-44.373h-92.16v-92.16h-44.373v92.16h-102.4v44.373h102.4v102.4z" />
<glyph unicode="&#xe91f;" glyph-name="accessibility" horiz-adv-x="878" d="M438.857 734.506c-24.942 0-46.181 8.765-63.72 26.295-17.538 17.538-26.307 38.778-26.307 63.72s8.769 46.182 26.307 63.72c17.538 17.538 38.778 26.307 63.72 26.307s46.181-8.769 63.722-26.307c17.535-17.538 26.302-38.778 26.302-63.72s-8.767-46.181-26.302-63.72c-17.541-17.53-38.78-26.295-63.722-26.295zM312.271-38.185v635.781c-49.704 4.063-99.125 9.923-148.261 17.579-49.136 7.664-95.679 17.119-139.63 28.367l17.822 73.143c62.448-16.132 127.167-27.823 194.158-35.072 66.983-7.249 134.481-10.874 202.496-10.874 68.013 0 135.514 3.625 202.498 10.874 66.989 7.249 131.706 18.94 194.155 35.072l17.822-73.143c-43.949-11.248-90.492-20.703-139.63-28.367-49.137-7.656-98.558-13.515-148.261-17.579v-635.781h-73.133v298.203h-106.908v-298.203h-73.131z" />
<glyph unicode="&#xe920;" glyph-name="info" d="M512.001 960c-101.266 0-200.254-30.028-284.453-86.288s-149.821-136.223-188.575-229.778c-38.752-93.556-48.891-196.502-29.136-295.821s68.519-190.548 140.123-262.155c71.605-71.601 162.834-120.364 262.154-140.12 99.318-19.755 202.264-9.615 295.821 29.134 93.551 38.754 173.518 104.374 229.776 188.573 56.263 84.198 86.288 183.191 86.288 284.452-0.143 135.749-54.131 265.895-150.118 361.882s-226.136 149.977-361.882 150.12zM512.001 14.768c-85.685 0-169.445 25.411-240.69 73.014s-126.773 115.265-159.562 194.428c-32.79 79.163-41.369 166.272-24.653 250.308 16.715 84.040 57.977 161.234 118.565 221.823s137.784 101.85 221.821 118.565c84.041 16.716 171.15 8.137 250.308-24.653 79.163-32.79 146.825-88.318 194.428-159.562s73.014-155.006 73.014-240.692c-0.131-114.857-45.818-224.976-127.033-306.197-81.217-81.217-191.336-126.903-306.197-127.033zM590.77 211.691c0-10.445-4.149-20.459-11.537-27.848-7.384-7.384-17.403-11.537-27.848-11.537-20.89 0-40.928 8.302-55.7 23.075s-23.069 34.805-23.069 55.694v196.923c-10.445 0-20.464 4.154-27.848 11.537-7.389 7.389-11.537 17.403-11.537 27.848s4.149 20.464 11.537 27.853c7.384 7.384 17.403 11.532 27.848 11.532 20.89 0 40.928-8.297 55.7-23.069s23.069-34.805 23.069-55.7v-196.923c10.445 0 20.464-4.149 27.848-11.532 7.389-7.389 11.537-17.408 11.537-27.853zM433.232 664.615c0 11.685 3.466 23.106 9.957 32.821s15.717 17.287 26.514 21.759c10.796 4.472 22.676 5.641 34.133 3.362s21.987-7.907 30.248-16.168c8.261-8.262 13.89-18.788 16.169-30.249s1.107-23.338-3.361-34.133c-4.474-10.795-12.046-20.021-21.761-26.512s-21.136-9.957-32.821-9.957c-15.669 0-30.694 6.224-41.774 17.303s-17.303 26.105-17.303 41.774z" />
<glyph unicode="&#xe921;" glyph-name="advanced_search" d="M314.476 890.199c87.893-0.002 162.358-30.431 223.299-91.328 60.927-60.896 91.375-135.328 91.375-223.247 0-36.728-6.162-71.815-18.488-105.243-12.336-33.433-28.807-62.534-49.379-87.259l323.112-323.112-54.203-54.209-323.113 323.117c-25.717-21.235-55.286-37.882-88.716-49.883-33.436-12.006-68.045-17.984-103.786-17.984-87.921 0-162.349 30.443-223.247 91.324-60.884 60.875-91.323 135.26-91.328 223.149 0.002 87.893 30.449 162.358 91.328 223.296 60.871 60.913 135.261 91.372 223.146 91.378zM900.423 480.879h123.577v-61.689h-123.577v-123.581h-61.694v123.581h-123.376v61.689h123.376v123.379h61.694v-123.379zM314.575 813.036c-66.278 0-122.444-22.972-168.439-68.973-46.004-45.995-68.971-102.161-68.973-168.439 0-66.282 22.969-122.443 68.973-168.439 45.997-46.008 102.159-68.97 168.439-68.97s122.444 22.969 168.439 68.97c45.999 45.996 68.972 102.161 68.972 168.439s-22.969 122.444-68.972 168.439c-45.996 46.004-102.161 68.972-168.439 68.973z" />
<glyph unicode="&#xe922;" glyph-name="list-grid" d="M258.319 121.344c20.269 0 37.501 7.096 51.697 21.281 14.185 14.191 21.278 31.425 21.278 51.694s-7.093 37.503-21.278 51.7c-14.196 14.185-31.428 21.275-51.697 21.275s-37.501-7.090-51.697-21.275c-14.185-14.197-21.278-31.431-21.278-51.7s7.093-37.503 21.278-51.694c14.196-14.185 31.428-21.281 51.697-21.281zM258.319 628.708c20.269 0 37.501 7.093 51.697 21.278 14.185 14.196 21.278 31.428 21.278 51.697s-7.093 37.501-21.278 51.697c-14.196 14.185-31.428 21.278-51.697 21.278s-37.501-7.093-51.697-21.278c-14.185-14.196-21.278-31.428-21.278-51.697s7.093-37.501 21.278-51.697c14.196-14.185 31.428-21.278 51.697-21.278zM258.319 375.025c20.269 0 37.501 7.096 51.697 21.281 14.185 14.191 21.278 31.425 21.278 51.694s-7.093 37.503-21.278 51.7c-14.196 14.185-31.428 21.275-51.697 21.275s-37.501-7.090-51.697-21.275c-14.185-14.197-21.278-31.431-21.278-51.7s7.093-37.503 21.278-51.694c14.196-14.185 31.428-21.281 51.697-21.281zM765.68 121.344c20.269 0 37.503 7.096 51.7 21.281 14.185 14.191 21.275 31.425 21.275 51.694s-7.090 37.503-21.275 51.7c-14.197 14.185-31.431 21.275-51.7 21.275s-37.503-7.090-51.694-21.275c-14.185-14.197-21.281-31.431-21.281-51.7s7.096-37.503 21.281-51.694c14.191-14.185 31.425-21.281 51.694-21.281zM765.68 628.708c20.269 0 37.503 7.093 51.7 21.278 14.185 14.196 21.275 31.428 21.275 51.697s-7.090 37.501-21.275 51.697c-14.197 14.185-31.431 21.278-51.7 21.278s-37.503-7.093-51.694-21.278c-14.185-14.196-21.281-31.428-21.281-51.697s7.096-37.501 21.281-51.697c14.191-14.185 31.425-21.278 51.694-21.278zM108.891-63.999c-30.429 0-56.184 10.541-77.266 31.624s-31.624 46.838-31.624 77.269v806.217c0 30.428 10.541 56.184 31.624 77.266s46.838 31.624 77.266 31.624h806.22c30.425 0 56.181-10.541 77.263-31.624s31.624-46.838 31.624-77.266v-806.217c0-30.431-10.541-56.187-31.624-77.269s-46.838-31.624-77.263-31.624h-806.22zM108.891 26.353h806.22c4.638 0 8.885 1.934 12.74 5.8 3.862 3.854 5.794 8.101 5.794 12.74v806.217c0 4.638-1.934 8.885-5.794 12.74-3.854 3.865-8.101 5.797-12.74 5.797h-806.22c-4.638 0-8.885-1.932-12.74-5.797-3.865-3.854-5.797-8.101-5.797-12.74v-806.217c0-4.638 1.932-8.885 5.797-12.74 3.854-3.868 8.101-5.8 12.74-5.8zM765.68 375.025c20.269 0 37.503 7.096 51.7 21.281 14.185 14.191 21.275 31.425 21.275 51.694s-7.090 37.503-21.275 51.7c-14.197 14.185-31.431 21.275-51.7 21.275s-37.503-7.090-51.694-21.275c-14.185-14.197-21.281-31.431-21.281-51.7s7.096-37.503 21.281-51.694c14.191-14.185 31.425-21.281 51.694-21.281zM511.999 628.708c20.269 0 37.503 7.093 51.7 21.278 14.185 14.196 21.275 31.428 21.275 51.697s-7.090 37.501-21.275 51.697c-14.197 14.185-31.431 21.278-51.7 21.278s-37.503-7.093-51.694-21.278c-14.185-14.196-21.281-31.428-21.281-51.697s7.096-37.501 21.281-51.697c14.191-14.185 31.425-21.278 51.694-21.278zM511.999 121.344c20.269 0 37.503 7.096 51.7 21.281 14.185 14.191 21.275 31.425 21.275 51.694s-7.090 37.503-21.275 51.7c-14.197 14.185-31.431 21.275-51.7 21.275s-37.503-7.090-51.694-21.275c-14.185-14.197-21.281-31.431-21.281-51.7s7.096-37.503 21.281-51.694c14.191-14.185 31.425-21.281 51.694-21.281zM511.999 375.025c20.269 0 37.503 7.096 51.7 21.281 14.185 14.191 21.275 31.425 21.275 51.694s-7.090 37.503-21.275 51.7c-14.197 14.185-31.431 21.275-51.7 21.275s-37.503-7.090-51.694-21.275c-14.185-14.197-21.281-31.431-21.281-51.7s7.096-37.503 21.281-51.694c14.191-14.185 31.425-21.281 51.694-21.281z" />
<glyph unicode="&#xe923;" glyph-name="filter" d="M470-64.001c-17.158 0-31.511 5.781-43.060 17.334-11.559 11.553-17.34 25.902-17.34 43.060v395.147l-382.159 485.48c-13.13 17.51-15.036 35.715-5.716 54.613 9.33 18.91 25.067 28.365 47.206 28.365h886.139c22.144 0 37.881-9.454 47.209-28.365 9.317-18.898 7.415-37.103-5.716-54.613l-382.157-485.48v-395.147c0-17.158-5.781-31.509-17.342-43.060-11.543-11.553-25.902-17.334-43.060-17.334h-84.003zM512.002 427.515l337.923 430.081h-675.843l337.921-430.081z" />
<glyph unicode="&#xe924;" glyph-name="download" d="M473.314 920v-625.568l-293.841 293.843-54.359-55.157 386.887-386.889 386.883 386.889-54.356 55.157-293.841-293.843v625.568h-77.378z" />
<glyph unicode="&#xe925;" glyph-name="Info" horiz-adv-x="983" d="M491.525 936.695c-97.211 0-192.236-28.826-273.064-82.834s-143.823-130.769-181.024-220.578c-37.201-89.811-46.934-188.635-27.969-283.977s65.776-182.918 134.513-251.659c68.738-68.735 156.315-115.545 251.658-134.51 95.341-18.964 194.166-9.23 283.977 27.968 89.806 37.202 166.571 100.195 220.576 181.023 54.010 80.828 82.834 175.856 82.834 273.063-0.137 130.314-51.963 255.249-144.108 347.393s-217.082 143.972-347.393 144.11zM491.525 29.308c-82.254 0-162.661 24.394-231.053 70.091s-121.697 110.65-153.174 186.644c-31.477 75.993-39.713 159.615-23.666 240.286 16.046 80.675 55.656 154.779 113.818 212.942s132.267 97.772 212.939 113.818c80.676 16.047 164.298 7.811 240.286-23.666 75.993-31.477 140.947-84.782 186.644-153.174s70.091-148.8 70.091-231.056c-0.126-110.258-43.984-215.968-121.947-293.938-77.965-77.965-183.675-121.822-293.938-121.947zM567.14 218.346c0-10.027-3.983-19.64-11.075-26.732-7.088-7.088-16.706-11.075-26.732-11.075-20.053 0-39.29 7.97-53.47 22.151s-22.146 33.412-22.146 53.465v189.039c-10.027 0-19.645 3.988-26.732 11.075-7.093 7.093-11.075 16.706-11.075 26.732s3.983 19.645 11.075 26.737c7.088 7.088 16.706 11.070 26.732 11.070 20.053 0 39.29-7.965 53.47-22.146s22.146-33.412 22.146-53.47v-189.039c10.027 0 19.645-3.983 26.732-11.070 7.093-7.093 11.075-16.711 11.075-26.737zM415.909 653.137c0 11.217 3.327 22.181 9.558 31.506s15.087 16.595 25.453 20.888c10.364 4.293 21.768 5.415 32.767 3.227s21.107-7.59 29.036-15.521c7.93-7.931 13.334-18.036 15.522-29.038s1.063-22.404-3.226-32.767c-4.295-10.363-11.564-19.22-20.89-25.451s-20.29-9.558-31.506-9.558c-15.042 0-29.465 5.975-40.102 16.61s-16.61 25.060-16.61 40.102z" />
<glyph unicode="&#xe926;" glyph-name="list-list" d="M274.568 160.725c15.109 0 27.763 5.107 37.963 15.329 10.19 10.216 15.285 22.884 15.285 37.99 0 15.113-5.11 27.762-15.329 37.966-10.221 10.185-22.885 15.282-37.994 15.282s-27.759-5.107-37.949-15.329c-10.2-10.216-15.3-22.884-15.3-37.99 0-15.113 5.11-27.762 15.329-37.949 10.229-10.204 22.894-15.3 37.994-15.3zM274.568 394.722c15.109 0 27.763 5.115 37.963 15.329 10.19 10.222 15.285 22.884 15.285 37.997 0 15.107-5.11 27.756-15.329 37.949-10.221 10.185-22.885 15.282-37.994 15.282s-27.759-5.107-37.949-15.329c-10.2-10.216-15.3-22.884-15.3-37.99 0-15.113 5.11-27.762 15.329-37.949 10.229-10.191 22.894-15.288 37.994-15.288zM274.568 628.707c15.109 0 27.763 5.11 37.963 15.329 10.19 10.219 15.285 22.884 15.285 37.994s-5.11 27.759-15.329 37.949c-10.221 10.2-22.885 15.3-37.994 15.3s-27.759-5.11-37.949-15.329c-10.2-10.221-15.3-22.885-15.3-37.994s5.11-27.763 15.329-37.963c10.229-10.19 22.894-15.285 37.994-15.285zM457.562 168.84h342.878v90.341h-342.878v-90.341zM457.562 402.824h342.878v90.353h-342.878v-90.353zM457.562 636.825h342.878v90.338h-342.878v-90.338zM108.89-64c-30.429 0-56.184 10.541-77.266 31.624s-31.624 46.838-31.624 77.269v806.217c0 30.428 10.541 56.184 31.624 77.266s46.838 31.624 77.266 31.624h806.217c30.431 0 56.187-10.541 77.269-31.624s31.624-46.838 31.624-77.266v-806.217c0-30.431-10.541-56.187-31.624-77.269s-46.838-31.624-77.269-31.624h-806.217zM108.89 26.353h806.217c4.638 0 8.885 1.934 12.74 5.8 3.868 3.854 5.8 8.101 5.8 12.74v806.217c0 4.638-1.934 8.885-5.8 12.74-3.854 3.865-8.101 5.797-12.74 5.797h-806.217c-4.638 0-8.885-1.932-12.74-5.797-3.865-3.854-5.797-8.101-5.797-12.74v-806.217c0-4.638 1.932-8.885 5.797-12.74 3.854-3.868 8.101-5.8 12.74-5.8z" />
<glyph unicode="&#xe927;" glyph-name="bookmark" d="M114.628-63.999v913.484c0 30.882 10.699 57.023 32.096 78.42s47.537 32.096 78.42 32.096h573.711c30.884 0 57.023-10.699 78.424-32.096 21.395-21.397 32.092-47.537 32.092-78.42v-913.484l-397.371 170.475-397.373-170.475zM206.329 76.609l305.672 131.441 305.668-131.441v772.875c0 4.707-1.959 9.018-5.885 12.93-3.911 3.922-8.22 5.884-12.93 5.884h-573.711c-4.707 0-9.018-1.962-12.93-5.884-3.922-3.913-5.885-8.223-5.885-12.93v-772.875z" />
<glyph unicode="&#xe928;" glyph-name="refresh" d="M514.629-64c-142.942 0-264.007 49.588-363.199 148.765-99.202 99.186-148.805 220.229-148.805 363.127 0 142.908 49.602 263.985 148.805 363.235 99.192 99.248 220.256 148.873 363.199 148.873 79.817 0 155.344-17.744 226.594-53.231 71.234-35.499 130.49-85.585 177.751-150.256v203.487h102.402v-417.47h-417.472v102.383h269.656c-35.977 65.912-85.87 117.834-149.671 155.767-63.802 37.944-133.555 56.918-209.257 56.918-113.781 0-210.491-39.823-290.136-119.466s-119.466-176.356-119.466-290.138c0-113.77 39.823-210.485 119.466-290.132 79.646-79.639 176.356-119.468 290.136-119.468 87.606 0 166.686 25.032 237.225 75.095s120.035 116.056 148.478 197.973h107.913c-30.982-111.408-92.006-201.842-183.074-271.29s-194.579-104.171-310.543-104.171z" />
<glyph unicode="&#xe929;" glyph-name="share" d="M824.885-63.997c-40.338 0-74.593 14.105-102.748 42.32-28.151 28.215-42.227 62.468-42.227 102.778 0 5.385 1.863 18.485 5.591 39.286l-383.274 225.629c-12.988-13.47-28.42-24.024-46.295-31.661s-37.026-11.453-57.452-11.453c-40.16 0-74.298 14.163-102.413 42.496s-42.172 62.533-42.172 102.602c0 40.069 14.057 74.272 42.172 102.602s62.253 42.496 102.413 42.496c20.427 0 39.576-3.818 57.452-11.452s33.307-18.19 46.295-31.663l383.274 225.118c-2.141 6.629-3.61 13.124-4.409 19.482-0.788 6.36-1.182 13.133-1.182 20.318 0 40.304 14.117 74.564 42.344 102.778 28.244 28.214 62.533 42.32 102.873 42.32s74.586-14.12 102.737-42.361c28.163-28.231 42.244-62.517 42.244-102.858s-14.11-74.59-42.326-102.751c-28.21-28.151-62.468-42.227-102.772-42.227-20.526 0-39.616 3.902-57.265 11.71-17.661 7.806-32.984 18.446-45.972 31.918l-383.273-225.628c2.138-6.639 3.606-13.134 4.405-19.485 0.79-6.361 1.186-13.134 1.186-20.32s-0.395-13.957-1.186-20.32c-0.799-6.349-2.269-12.847-4.405-19.485l383.273-225.629c12.988 13.475 28.309 24.118 45.972 31.92 17.649 7.807 36.741 11.712 57.265 11.712 40.304 0 74.562-14.117 102.772-42.349 28.215-28.239 42.326-62.533 42.326-102.873s-14.122-74.586-42.361-102.737c-28.233-28.163-62.521-42.237-102.861-42.237zM825.009 16.845c18.203 0 33.466 6.155 45.783 18.473 12.312 12.312 18.473 27.575 18.473 45.783 0 18.203-6.162 33.466-18.473 45.783-12.317 12.324-27.58 18.485-45.783 18.485-18.208 0-33.471-6.162-45.783-18.485-12.329-12.317-18.491-27.58-18.491-45.783 0-18.208 6.162-33.471 18.491-45.783 12.312-12.317 27.575-18.473 45.783-18.473zM198.48 383.745c18.351 0 33.734 6.155 46.147 18.473 12.423 12.317 18.635 27.575 18.635 45.783s-6.211 33.471-18.635 45.783c-12.413 12.317-27.797 18.473-46.147 18.473-18.064 0-33.203-6.155-45.42-18.473-12.217-12.312-18.324-27.575-18.324-45.783s6.108-33.466 18.324-45.783c12.217-12.317 27.356-18.473 45.42-18.473zM825.009 750.633c18.203 0 33.466 6.162 45.783 18.487 12.312 12.316 18.473 27.576 18.473 45.784s-6.162 33.469-18.473 45.784c-12.317 12.314-27.58 18.472-45.783 18.472-18.208 0-33.471-6.158-45.783-18.472-12.329-12.316-18.491-27.576-18.491-45.784s6.162-33.469 18.491-45.784c12.312-12.324 27.575-18.487 45.783-18.487z" />
<glyph unicode="&#xe92a;" glyph-name="add" d="M455.112-64v455.112h-455.11v113.778h455.11v455.11h113.775v-455.11h455.112v-113.778h-455.112v-455.112h-113.775z" />
<glyph unicode="&#xe92b;" glyph-name="expand" d="M0.002-63.997v319.999h64v-210.706l230.4 230.4 45.295-45.292-230.4-230.4h210.703v-64h-319.999zM703.999-63.997v64h210.706l-230.4 230.4 45.292 45.292 230.4-230.4v210.706h64v-319.999h-319.999zM294.399 620.303l-230.4 230.4v-210.703h-64v319.999h319.999v-64h-210.703l230.4-230.4-45.295-45.295zM729.599 620.303l-45.292 45.295 230.4 230.4h-210.706v64h319.999v-319.999h-64v210.703l-230.4-230.4z" />
</font>
</defs>
</svg>
